kgf sarkar Manikarnika star trek discovery thakrey Xxx kedarnath thackeray malayalam the accidental prime minister supernatural evo aquaman telugu odiyan the flash why cheat india great british bake off s09e10 vikings tushy 18.12 1080p.mp4-ktr charlie chaplin 2 1080P Hindi mirzapur ettv mr majnu the grand tour 2018 ita Adanga Maru Tin Star etmovies dtone uri EVO malayalam 2018 movies AQUAMAN ita Bumblebee ethd ITA zero etrg venom f2 1080p 2018 maari 2 Game Of Thrones viswasam TamilRockers Kannada simmba Kannada ddr simbha tushyraw 1080p.mp4-ktr mortal engines simba petta DTOne uri the surgical strike kung fu the legend Young justice tamil robot 2.0 it brazzers it 2017 2.0 thakre Njan Prakashan glass fgt bohemian rhapsody Star Trek Discovery S02E02 
Warning! Use a VPN When Downloading Torrents!
Your IP Address is 144.76.200.164. Location is Germany
Your Internet Provider is tracking your torrent activity! Hide your IP ADDRESS with a VPN!
We strongly recommend using TrustZone to anonymize your torrenting. 30 Day Money Back Guarantee!
Try it Now!
ETTV Recommended TV Shows
True.Detective.S03E07.WEBRip.x264-PBS[ettv] torrent
Supergirl.S04E12.HDTV.x264-SVA[ettv] torrent
Madam.Secretary.S05E14.HDTV.x264-KILLERS[ettv] torrent
The.Walking.Dead.S09E10.HDTV.x264-SVA[ettv] torrent
Charmed.2018.S01E12.HDTV.x264-SVA[ettv] torrent
WWE Elimination Chamber 2019 PPV WEB h264-KING2008 [TJET] torrent

ETTV Recommended SD
Ralph Breaks the Internet.2018.BRRip.XviD.AC3-EVO[EtMovies] torrent
Mary.Queen.of.Scots.2018.BRRip.XViD.AC3-ETRG torrent
The.Possession.of.Hannah.Grace.2018.BRRip.XViD-ETRG torrent
Nightshooters 2018.BRRip.XViD-ETRG torrent

ETTV Recommended HD
Piercing.2018.BluRay.1080p.HEVC.DTS-HD.MA5.1-DTOne torrent
The.Appearance.2018.BluRay.1080p.HEVC.DTS-HD.MA5.1-DTOne torrent
You Might Be The Killer 2018.1080p.Blu-ray.HEVC.DTS-HDMA.5.1-DTOne torrent
Nightshooters.2018.1080p.Blu-ray.1080p.HEVC.DTS-HDMA.5.1-DTOne torrent

ETTV Recommended UHD
Velvet.Buzzsaw.2019.2160p.UHDRip.x265.HDR.DDP.5.1-DTOne torrent
The.Silence.of.the.Lambs.1991.2160p.UHDRip.x265.HDR.DTS-HD.MA.5.1-DTOne torrent
Robin.Hood.2018.UHD.BluRay.2160p.x265.Atmos.7.1-DTOne torrent
Big Pacific Season One 2018.2160p.UHD.BluRay.x265.SDR.FLAC.2.0-DTOne torrent

ETTV Recommended Cam
The Lego Movie 2 2019 HDCAM XViD AC3-ETRG torrent
How to Train Your Dragon 3 2018 NEW 720p HDCAM-1XBET torrent
Happy Death Day 2U.2019.HDCAM.XViD.AC3-ETRG torrent
What Men Want 2019 HDCAM x264 AC3 MP4KiNG torrent

ETTV Recommended Foreign
Aravindha Sametha Veera Raghava.2018.1080p.WebDL.AVC.AAC.ESub.DTOne torrent
Organize Isler: Sazan Sarmali 2019 1080p NF WEB-DL DD5.1 H.264-TURG[EtHD] torrent
Les salopes ou le sucre naturel de la peau 2018 1080p WEB-DL AAC5.1 H.264-v99[EtHD] torrent
Robin.Hood.2018.Multi..BluRay.1080p.HEVC.Atmos.7.1-DTOne torrent


Download Torrent "Race 2 (2013) Hindi 720p WEB-DL x264 AAC ESub-Sun George (Requested)"

IMDB Details
Description:

Ranvir treads through the world of the Indian mafia in Turkey as he looks to avenge the death of his lover and partner in crime.

Genre:

Action, Crime, Thriller

Download Torrent (Magnet)
Download Torrent (File)
Seeds: 321
Leechers: 191
Completed: 951 
Last Checked: 11-02-2019 14:19:31


Loading...
Details
Title:Race 2 (2013) Hindi 720p WEB-DL x264 AAC ESub-Sun George (Requested)
Description:
Race 2 (2013) Hindi 720p WEB-DL x264 AAC ESub-Sun George (Requested)





http://www.imdb.com/title/tt1375789/












===================================================================

General
Format                      : Matroska
Format version              : Version 4 / Version 2
File size                   : 1.62 GiB
Duration                    : 2 h 22 min
Overall bit rate            : 1 620 kb/s
Movie name : Race 2 (2013) Hindi 720p WEB-DL x264 AAC ESub-Sun George (Requested)

===================================================================

Video
ID                          : 1
Format                      : AVC
Format/Info                 : Advanced Video Codec
Format profile              : [email protected]
Format settings             : CABAC / 5 Ref Frames
Format settings, CABAC      : Yes
Format settings, ReFrames   : 5 frames
Codec ID                    : V_MPEG4/ISO/AVC
Duration                    : 2 h 22 min
Bit rate                    : 1 500 kb/s
Width                       : 1 280 pixels
Height                      : 720 pixels
Display aspect ratio        : 16:9
Frame rate mode             : Constant
Frame rate                  : 24.000 FPS
Color space                 : YUV
Chroma subsampling          : 4:2:0
Bit depth                   : 8 bits
Scan type                   : Progressive
Bits/(Pixel*Frame)          : 0.068
Stream size                 : 1.49 GiB (92%)
Title                       : Sun George

===================================================================

Audio
ID                          : 2
Format                      : AAC LC
Format/Info                 : Advanced Audio Codec Low Complexity
Codec ID                    : A_AAC-2
Duration                    : 2 h 22 min
Bit rate                    : 125 kb/s
Channel(s)                  : 2 channels
Channel layout              : L R
Sampling rate               : 48.0 kHz
Frame rate                  : 46.875 FPS (1024 SPF)
Compression mode            : Lossy
Stream size                 : 128 MiB (8%)
Title                       : Sun George
Language                    : Hindi
Default                     : Yes
Forced                      : No

Text
ID                          : 3
Format                      : UTF-8
Codec ID                    : S_TEXT/UTF8
Codec ID/Info               : UTF-8 Plain Text
Duration                    : 2 h 14 min
Bit rate                    : 42 b/s
Count of elements           : 1534
Stream size                 : 42.4 KiB (0%)
Title                       : Sun George
Language                    : English
Default                     : Yes
Forced                      : Yes


















Category:Movies > HD 720p
Lang:Hindi  Hindi
Total Size:1.64 GB
Info Hash:735c3b429734288ced259498626543848221d350
Added By:sungeorge
Date Added:11-02-2019 14:19:23

  

Files

File List: 
 File Size
Race 2 (2013) Hindi 720p WEB-DL x264 AAC ESub-Sun George (Requested).mkv1.62 GB
Sample Race 2 (2013) Hindi 720p WEB-DL x264 AAC ESub-Sun George (Requested).mkv24 MB



Loading...
Comments

There are currently no comments. Be the first one to write something !

Disclaimer: None of the files shown here are actually hosted or transmitted by this server. The links are provided solely by this site's users. The site moderation is also a service provided by the site's users. The administrator of this site (ettv.be) cannot be held responsible for what its users post, or any other actions of its users. You may not use this site to distribute or download any material when you do not have the legal rights to do so. It is your own responsibility to adhere to these terms.

Reality-TV | Houkago Teibo Nisshi - Raw | 02.06 [액션] [한글무설치] FAR CRY 5 Dead Living Zombies ( CODEX )